Alter Bridge - 2017 - Rarities

  • Category Music
  • Type MP3
  • Language English
  • Total size 107.9 MB
  • Uploaded By KATJohnRambo
  • Downloads 136
  • Last checked 1 hour ago
  • Date uploaded 1 week ago
  • Seeders 11
  • Leechers 1

Infohash : 2B294B7F8D75078766EBF52DC0A1CE3C54C225FF





--------------------------------------------------------------------------------
Analyzed: Alter Bridge / Rarities
--------------------------------------------------------------------------------

DR         Peak         RMS     Duration Track
--------------------------------------------------------------------------------
DR10      -6.69 dB   -18.36 dB      4:13 01-Breathe
DR11      -6.63 dB   -20.45 dB      4:12 02-Cruel Sun
DR11      -6.59 dB   -21.01 dB      4:39 03-Solace
DR11      -6.19 dB   -19.84 dB      5:33 04-New Way To Live
DR11      -6.44 dB   -19.58 dB      3:41 05-The Damage Done
DR11      -6.81 dB   -19.21 dB      3:43 06-We Don't Care At All
DR11      -7.25 dB   -19.47 dB      4:34 07-Zero
DR11      -6.49 dB   -19.24 dB      3:25 08-Home
DR11      -7.18 dB   -19.87 dB      4:02 09-Never Born To Follow
DR12      -7.25 dB   -20.93 dB      3:40 10-Never Say Die
DR13      -7.33 dB   -21.49 dB      5:26 11-Symphony Of Agony
--------------------------------------------------------------------------------

Number of tracks:  11
Official DR value: DR11

Samplerate:        48000 Hz
Channels:          2
Bitrate:           320 kbps
Codec:             MP3
================================================================================

Files:

Alter Bridge - 2017 - Rarities
  • 04. New Way To Live.mp3 (12.7 MB)
  • 02. Cruel Sun.mp3 (9.6 MB)
  • 03. Solace.mp3 (10.6 MB)
  • 01. Breathe.mp3 (9.7 MB)
  • 05. The Damage Done.mp3 (8.4 MB)
  • 06. We Don't Care At All.mp3 (8.5 MB)
  • 07. Zero.mp3 (10.5 MB)
  • 08. Home.mp3 (7.8 MB)
  • 09. Never Born To Follow.mp3 (9.2 MB)
  • 10. Never Say Die.mp3 (8.4 MB)
  • 11. Symphony Of Agony.mp3 (12.4 MB)
  • foo_dr.txt (1.3 KB)

There are currently no comments. Feel free to leave one :)

Code:

  • udp://tracker.leechers-paradise.org:6969/announce