Alter Bridge - 2017 - Blackbird

  • Category Music
  • Type MP3
  • Language English
  • Total size 133.5 MB
  • Uploaded By KATJohnRambo
  • Downloads 163
  • Last checked 4 hours ago
  • Date uploaded 1 week ago
  • Seeders 10
  • Leechers 0

Infohash : 1C7607B6336BBD1F87056F3BFAD77AE1EE95FA56





--------------------------------------------------------------------------------
Analyzed: Alter Bridge / Blackbird
--------------------------------------------------------------------------------

DR         Peak         RMS     Duration Track
--------------------------------------------------------------------------------
DR12      -6.14 dB   -20.76 dB      3:19 01-Ties That Bind
DR12      -6.23 dB   -19.79 dB      3:51 02-Come To Life
DR12      -6.11 dB   -20.40 dB      4:46 03-Brand New Start
DR12      -6.78 dB   -20.60 dB      4:30 04-Buried Alive
DR12      -7.45 dB   -21.63 dB      4:14 05-Coming Home
DR11      -6.78 dB   -20.32 dB      4:06 06-Before Tomorrow Comes
DR12      -7.19 dB   -21.26 dB      4:15 07-Rise Today
DR11      -7.44 dB   -21.92 dB      7:49 08-Blackbird
DR12      -6.80 dB   -20.67 dB      4:16 09-One By One
DR12      -6.90 dB   -22.62 dB      4:18 10-Watch Over You
DR12      -8.48 dB   -22.32 dB      3:52 11-Break Me Down
DR12      -6.20 dB   -20.75 dB      4:20 12-White Knuckles
DR12      -7.25 dB   -21.68 dB      4:43 13-Wayward One
--------------------------------------------------------------------------------

Number of tracks:  13
Official DR value: DR12

Samplerate:        48000 Hz
Channels:          2
Bitrate:           320 kbps
Codec:             MP3
================================================================================

Files:

Alter Bridge - 2017 - Blackbird
  • 08. Blackbird.mp3 (17.9 MB)
  • 02. Come To Life.mp3 (8.8 MB)
  • 03. Brand New Start.mp3 (10.9 MB)
  • 04. Buried Alive.mp3 (10.3 MB)
  • 05. Coming Home.mp3 (9.7 MB)
  • 06. Before Tomorrow Comes.mp3 (9.4 MB)
  • 07. Rise Today.mp3 (9.7 MB)
  • 01. Ties That Bind.mp3 (7.6 MB)
  • 09. One By One.mp3 (9.8 MB)
  • 10. Watch Over You.mp3 (9.8 MB)
  • 11. Break Me Down.mp3 (8.9 MB)
  • 12. White Knuckles.mp3 (9.9 MB)
  • 13. Wayward One.mp3 (10.8 MB)
  • foo_dr.txt (1.5 KB)

There are currently no comments. Feel free to leave one :)

Code:

  • udp://tracker.leechers-paradise.org:6969/announce